Información

Alimentado por su restaurada fe en la humanidad e inspirado por el acto desinteresado de Superman, Bruce Wayne recluta la ayuda de su recién encontrada aliada, Diana Prince, para enfrentarse a un enemigo aún mayor. Juntos, Batman y Wonder Woman trabajan deprisa para encontrar y reclutar un equipo de metahumanos para plantar cara a esta nueva amenaza creciente. Pero pese a la formación de esta liga de héroes sin precedentes – Batman, Wonder Woman, Aquaman, Cyborg y Flash, quizás sea demasiado tarde para salvar el planeta de un asalto de proporciones catastróficas.


Capturas


Datos Técnicos

Justice League (2017)
BRRip 1080p MKV | Resolución: 1920×1080p | Codec: H.264 | Tamaño: 5.12 GB
Idiomas: Latino AC3 5.1 BD – Ingles AC3 5.1 BD
Subtitulos: Latino – Ingles | 5% Recuperación | Servidores: Mega – Uptobox – 1fichier

MediaInfo

General
Complete name : Justice League (2017) Dual Full 1080p BRrip.mkv
Format : Matroska
Format version : Version 4 / Version 2
File size : 5.12 GiB
Duration : 2 h 0 min
Overall bit rate : 6 107 kb/s
Movie name : Justice League (2017) Dual Full 1080p BRrip
Encoded date : UTC 2018-02-26 06:59:22
Writing application : mkvmerge v15.0.0 (‘Duel with the Devil’) 64-bit
Writing library : libebml v1.3.5 + libmatroska v1.4.5

Video
ID : 1
Format : AVC
Format/Info : Advanced Video Codec
Format profile : High@L4.1
Format settings : CABAC / 4 Ref Frames
Format settings, CABAC : Yes
Format settings, ReFrames : 4 frames
Codec ID : V_MPEG4/ISO/AVC
Duration : 2 h 0 min
Bit rate : 5 000 kb/s
Width : 1 920 pixels
Height : 1 080 pixels
Display aspect ratio : 16:9
Frame rate mode : Constant
Frame rate : 23.976 (24000/1001) FPS
Color space : YUV
Chroma subsampling : 4:2:0
Bit depth : 8 bits
Scan type : Progressive
Bits/(Pixel*Frame) : 0.101
Stream size : 4.19 GiB (82%)
Title : Justice League (2017) Dual Full 1080p BRrip
Writing library : x264 core 148 r2708 86b7198
Default : Yes
Forced : No
Color range : Limited
Color primaries : BT.709
Transfer characteristics : BT.709
Matrix coefficients : BT.709

Audio #1
ID : 2
Format : AC-3
Format/Info : Audio Coding 3
Codec ID : A_AC3
Duration : 2 h 0 min
Bit rate mode : Constant
Bit rate : 448 kb/s
Channel(s) : 6 channels
Channel positions : Front: L C R, Side: L R, LFE
Sampling rate : 48.0 kHz
Frame rate : 31.250 FPS (1536 SPF)
Bit depth : 16 bits
Compression mode : Lossy
Delay relative to video : -5 ms
Stream size : 385 MiB (7%)
Title : Latino
Language : Spanish
Service kind : Complete Main
Default : Yes
Forced : Yes

Audio #2
ID : 3
Format : AC-3
Format/Info : Audio Coding 3
Codec ID : A_AC3
Duration : 2 h 0 min
Bit rate mode : Constant
Bit rate : 640 kb/s
Channel(s) : 6 channels
Channel positions : Front: L C R, Side: L R, LFE
Sampling rate : 48.0 kHz
Frame rate : 31.250 FPS (1536 SPF)
Bit depth : 16 bits
Compression mode : Lossy
Delay relative to video : -5 ms
Stream size : 550 MiB (10%)
Title : Ingles
Language : English
Service kind : Complete Main
Default : No
Forced : No

Text #1
ID : 4
Format : PGS
Muxing mode : zlib
Codec ID : S_HDMV/PGS
Codec ID/Info : Picture based subtitle format used on BDs/HD-DVDs
Duration : 1 h 59 min
Bit rate : 25.5 kb/s
Count of elements : 2498
Stream size : 21.7 MiB (0%)
Title : Latino PGS
Language : Spanish
Default : No
Forced : No

Text #2
ID : 5
Format : PGS
Muxing mode : zlib
Codec ID : S_HDMV/PGS
Codec ID/Info : Picture based subtitle format used on BDs/HD-DVDs
Duration : 1 h 59 min
Bit rate : 30.8 kb/s
Count of elements : 3014
Stream size : 26.2 MiB (1%)
Title : InglesPGS
Language : English
Default : No
Forced : No

Text #3
ID : 6
Format : UTF-8
Codec ID : S_TEXT/UTF8
Codec ID/Info : UTF-8 Plain Text
Duration : 1 h 59 min
Bit rate : 42 b/s
Count of elements : 1247
Stream size : 37.6 KiB (0%)
Title : Forzados
Language : Spanish
Default : Yes
Forced : No

Text #4
ID : 7
Format : UTF-8
Codec ID : S_TEXT/UTF8
Codec ID/Info : UTF-8 Plain Text
Duration : 1 h 33 min
Bit rate : 0 b/s
Count of elements : 14
Stream size : 340 Bytes (0%)
Title : Latino
Language : Spanish
Default : No
Forced : No

Text #5
ID : 8
Format : UTF-8
Codec ID : S_TEXT/UTF8
Codec ID/Info : UTF-8 Plain Text
Duration : 1 h 59 min
Bit rate : 41 b/s
Count of elements : 1234
Stream size : 36.5 KiB (0%)
Title : Ingles
Language : English
Default : No
Forced : No

Menu
00:00:00.000 : :00:00:00.000
00:10:56.322 : :00:10:56.155
00:19:16.489 : :00:19:16.489
00:30:41.673 : :00:30:41.673
00:40:19.834 : :00:40:19.667
00:49:56.535 : :00:49:56.535
01:01:26.892 : :01:01:26.892
01:09:41.552 : :01:09:41.552
01:19:18.587 : :01:19:18.587
01:30:34.638 : :01:30:34.512
01:40:33.569 : :01:40:33.569
01:48:43.142 : :01:48:43.058


Descargas

Enlaces Públicos

Contraseña: micinehd.com

Links VIP

Links VIP

Inicie Sesión para ver links VIP